Descarga en MEGA 1 Link:






Track Listing
1. Na Na Na
2. Stand Up
3. I Wish
4. I Gotta Feeling / Stereo Hearts
5. Valerie / Torn
6. Moments
7. Gotta Be You
8. More Than This
9. Up All Night
10. Tell Me A Lie
11. Everything About You
12. Use Somebody
13. One Thing
14. Save You Tonight
15. What Makes You Beautiful
16. I Want





Código:
General
Complete name                            : One Direction Up All Night The Live Tour 2012 1080p Bluray Chamako.mkv
Format                                   : Matroska
Format version                           : Version 2
File size                                : 5.47 GiB
Duration                                 : 1h 11mn
Overall bit rate                         : 11.0 Mbps
Movie name                               : Chamako - One Direction UP All Night The Live Tour
Encoded date                             : UTC 2012-05-31 00:19:44
Writing application                      : mkvmerge v3.4.0 ('Rapunzel') built on May 15 2010 09:38:20
Writing library                          : libebml v0.8.0 + libmatroska v0.9.0


Video
ID                                       : 1
Format                                   : AVC
Format/Info                              : Advanced Video Codec
Format profile                           : High@L4.1
Format settings, CABAC                   : Yes
Format settings, ReFrames                : 4 frames
Codec ID                                 : V_MPEG4/ISO/AVC
Duration                                 : 1h 11mn
Bit rate                                 : 9 443 Kbps
Width                                    : 1 920 pixels
Height                                   : 1 080 pixels
Display aspect ratio                     : 16:9
Frame rate                               : 29.970 fps
Color space                              : YUV
Chroma subsampling                       : 4:2:0
Bit depth                                : 8 bits
Scan type                                : Progressive
Bits/(Pixel*Frame)                       : 0.152
Stream size                              : 4.60 GiB (84%)
Title                                    : Chamako - One Direction
Writing library                          : x264 core 125 r2200 999b753
Encoding settings                        : cabac=1 / ref=4 / deblock=1:0:0 / analyse=0x3:0x133 / me=umh / subme=7 / psy=1 / psy_rd=1.00:0.00 / mixed_ref=1 / me_range=16 / chroma_me=1 / trellis=1 / 8x8dct=1 / cqm=0 / deadzone=21,11 / fast_pskip=0 / chroma_qp_offset=-2 / threads=12 / lookahead_threads=2 / sliced_threads=0 / nr=0 / decimate=1 / interlaced=0 / bluray_compat=0 / constrained_intra=0 / bframes=3 / b_pyramid=2 / b_adapt=1 / b_bias=0 / direct=1 / weightb=1 / open_gop=0 / weightp=1 / keyint=250 / keyint_min=25 / scenecut=40 / intra_refresh=0 / rc_lookahead=40 / rc=2pass / mbtree=1 / bitrate=9443 / ratetol=1.0 / qcomp=0.60 / qpmin=0 / qpmax=69 / qpstep=4 / cplxblur=20.0 / qblur=0.5 / ip_ratio=1.40 / aq=1:1.00
Language                                 : English
Default                                  : No
Forced                                   : No


Audio
ID                                       : 2
Format                                   : DTS
Format/Info                              : Digital Theater Systems
Codec ID                                 : A_DTS
Duration                                 : 1h 11mn
Bit rate mode                            : Constant
Bit rate                                 : 1 510 Kbps
Channel(s)                               : 6 channels
Channel positions                        : Front: L C R, Side: L R, LFE
Sampling rate                            : 48.0 KHz
Bit depth                                : 24 bits
Compression mode                         : Lossy
Delay relative to video                  : 11ms
Stream size                              : 772 MiB (14%)
Title                                    : DTS
Language                                 : English
Default                                  : No
Forced                                   : No













ARCHIVO DE RECUPERACIÓN + 1 SFV DE COMPROBACIÓN DE RAR


JUMBOFILES - FREAKSHARE - TURBOBIT - BITSHARE





CONTRASEÑA: chamako (todo minusculas)


Si Algun link cae solo enviame un MP con el link del post y lo resubiré