Información del archivo en el servidor
Partes: 4
Servidor: FJ
Tamaño: 820 Mb

Sinopsis
Nueva adaptación televisiva de la popular novela de Jane Austen. A los diez
años, Fanny Price es enviada a vivir con sus parientes ricos a Mansfield
Park, Northampton. Aunque siempre ha estado agradecida a sus tíos,
tiene que luchar para adaptarse al protocolo aristocrático y
sufrir alusiones diarias a su inferioridad por parte de sus
parientes. Su rencorosa tía Norris le recuerda
constantemente que ella nunca será igual que
sus hijas, María y Julia. Y su tía Bertram
es demasiado perezosa para defenderla.

Caps





Ficha Tenica

TÍTULO ORIGINAL Mansfield Park
AÑO 2007
DURACIÓN 120 min
PAÍS Reino Unido
DIRECTOR Iain B. MacDonald
GUIÓN Maggie Wadey
(Novela: Jane Austen)
MÚSICA John E. Keane
FOTOGRAFÍA Nick Dance
REPARTO Billie Piper, Michelle Ryan,
Blake Ritson, Jemma Redgrave, Maggie
O'Neill, James D'Arcy, Hayley Atwell,
Douglas Hodge, Joseph Beattie,
Catherine Steadman, Rory Kinnear,
Dexter Fletcher, Stephen Tomlin,
Joseph Morgan, Aidan McArdle
PRODUCTORA ITV
GÉNERO Romance. Drama | Drama
romántico. Drama de época. Siglo XIX

Datos de ripeo

General
Complete name : files/O2312MANSFIELDPARKCASTELLANO.avi
Format : AVI
Format/Info : Audio Video Interleave
File size : 820 MiB
Duration : 1h 32mn
Overall bit rate : 1 237 Kbps
Writing application : VirtualDubMod 1.5.10.2 (build 2540/release)
Writing library : VirtualDubMod build 2540/release

Video
ID : 0
Format : MPEG-4 Visual
Format profile : Advanced Simple@L5
Format settings, BVOP : 1
Format settings, QPel : No
Format settings, GMC : No warppoints
Format settings, Matrix : Default (H.263)
Muxing mode : Packed bitstream
Codec ID : XVID
Codec ID/Hint : XviD
Duration : 1h 32mn
Bit rate : 1 035 Kbps
Width : 720 pixels
Height : 416 pixels
Display aspect ratio : 16:9
Frame rate : 25.000 fps
Color space : YUV
Chroma subsampling : 4:2:0
Bit depth : 8 bits
Scan type : Progressive
Compression mode : Lossy
Bits/(Pixel*Frame) : 0.138
Stream size : 686 MiB (84%)
Writing library : XviD 1.2.0.dev47 (UTC 2006-11-01)

Audio
ID : 1
Format : AC-3
Format/Info : Audio Coding 3
Mode extension : CM (complete main)
Codec ID : 2000
Duration : 1h 32mn
Bit rate mode : Constant
Bit rate : 192 Kbps
Channel(s) : 2 channels
Channel positions : Front: L R
Sampling rate : 48.0 KHz
Bit depth : 16 bits
Compression mode : Lossy
Stream size : 127 MiB (16%)
Alignment : Split accross interleaves
Interleave, duration : 40 ms (1.00 video frame)
Interleave, preload duration : 500 ms
Language : Spanish

Descarga

Descarga en MEGA 1 Link:


Nota: Si encuentras un link caído avísame para volverlo a subir