Monella 1998 [DVDRip] [Castellano] [Drama/Erotico]







Una joven muy sensual que está a punto de casarse con un hombre tan tradicional que quiere que ella llegue virgen al matrimonio, siente una gran atracción sexual hacia el amante de su madre.




TÍTULO ORIGINAL Monella
AÑO 1998
DURACIÓN 105 min.
PAÍS Italia
DIRECTOR Tinto Brass
GUIÓN Tinto Brass, Barbara Alberti, Carla Cipriani (Historia: Tinto Brass, Carla Cipriani)
MÚSICA Pino Donaggio
FOTOGRAFÍA Massimo Di Venanzo
REPARTO Anna Ammirati, Patrick Mower, Mario Parodi, Susanna Martinková, Antonio Salines, Francesca Nunzi, Vittorio Attene, Laura Trotter, Carlo Reali, Maurizio Prudenzi, Edith Rozanyai, Alberto Capone, Serena Grandi, Tinto Brass
PRODUCTORA C.R.C. / Cardinal Pictures / P.F.C. 2000 / Production Group
GÉNERO Comedia | Erótico. Años 50




Tamaño: 700 mb
Comprimido con winrar
Servidores: Fileserve, Filesonic,Uploaded, Filejungle

Format : AVI
Format/Info : Audio Video Interleave
File size : 700 MiB
Duration : 1h 37mn
Overall bit rate mode : Variable
Overall bit rate : 1 001 Kbps


Video
ID : 0
Format : MPEG-4 Visual
Format profile : Advanced Simple@L5
Format settings, BVOP : 2
Format settings, QPel : No
Format settings, GMC : No warppoints
Format settings, Matrix : Default (H.263)
Codec ID : XVID
Codec ID/Hint : XviD
Duration : 1h 37mn
Bit rate : 864 Kbps
Width : 672 pixels
Height : 396 pixels
Display aspect ratio : 1.697
Frame rate : 25.000 fps
Color space : YUV
Chroma subsampling : 4:2:0
Bit depth : 8 bits
Scan type : Progressive
Compression mode : Lossy
Bits/(Pixel*Frame) : 0.130
Stream size : 604 MiB (86%)
Writing library : XviD 1.1.0 Beta2 (UTC 2005-04-04)


Audio
ID : 1
Format : MPEG Audio
Format version : Version 1
Format profile : Layer 3
Mode : Joint stereo
Mode extension : MS Stereo
Codec ID : 55
Codec ID/Hint : MP3
Duration : 1h 37mn
Bit rate mode : Variable
Bit rate : 128 Kbps
Channel(s) : 2 channels
Sampling rate : 48.0 KHz
Compression mode : Lossy
Stream size : 86.8 MiB (12%)
Alignment : Aligned on interleaves
Interleave, duration : 24 ms (0.60 video frame)
Interleave, preload duration : 507 ms
Title : Audio
Writing library : LAME3.93















OPCIÓN 2
SI LOS LINKS DE ARRIBA SE CAEN, USA ESTOS LINKS PROTEGIDOS SOLO ENTRAS Y HACES CLIC EN "VER ENLACES - LINKS"







Descarga en MEGA 1 Link:



Si se caen los links mandame un mensaje privado con el titulo del post y lo resubo