“Los tres mosqueteros (2011)” es la nueva adaptación de la famosa novela de aventuras de Alejandro Dumas, en esta ocasión en versión 3D, dirigida por Paul W.S. Anderson, responsable entre otros títulos de la saga ”Resident evil”. Son conocidos como Athos, Porthos y Aramis, tres guerreros de élite que sirven al rey de Francia como sus mejores mosqueteros. Tras descubrir una malévola conspiración para derrocar al rey, los mosqueteros se cruzan con un joven que aspira a convertirse en héroe, D’Artagnan, y lo toman bajo su tutela. Juntos emprenden una peligrosa misión para frustrar el complot que amenaza no sólo a la Corona de Francia, sino al futuro de toda Europa.





Título: Los tres mosqueteros
Título original: The Three Musketeers in 3D
País: USA
Estreno en USA: 21/10/2011
Estreno en España: 30/09/2011
Productora: Impact Pictures, Constantin Films
Director: Paul W.S. Anderson
Guión: Paul W.S. Anderson & Andrew Davies
Reparto: Milla Jovovich, Orlando Bloom, Logan Lerman, Matthew Macfadyen, Mads Mikkelsen, Christoph Waltz, Ray [b]Stevenson, Juno Temple, Luke Evans, James Corden, Freddie Fox, Carsten Norgaard, Gabriella Wilde, Isaiah Michalski
Calificación: No recomendada para menores de 7 años





Código:
General
Unique ID                                : 181551825434327996516921629014044454081 (0x88959C15B4D7C827BA78EC304FE02CC1)
Complete name                            : F:\Descargas\relink.us - L3MosqueterosSBS.LAT.cadagotoHD - IDc605e0c2cd2eb2e7ba6cbf4b057e6f\Los.Tres.Mosqueteros.3D.SBS.1080p.Chamako.mkv
Format                                   : Matroska
Format version                           : Version 2
File size                                : 9.03 GiB
Duration                                 : 1h 50mn
Overall bit rate                         : 11.7 Mbps
Movie name                               : Chamako - Los Tres Mosquteros 2011 3D SBS BDRip 1080p
Encoded date                             : UTC 2012-02-28 16:49:37
Writing application                      : mkvmerge v4.4.0 ('Die Wiederkehr') built on Oct 31 2010 21:52:48
Writing library                          : libebml v1.0.0 + libmatroska v1.0.0


Video
ID                                       : 1
Format                                   : AVC
Format/Info                              : Advanced Video Codec
Format profile                           : High@L4.1
Format settings, CABAC                   : Yes
Format settings, ReFrames                : 2 frames
Muxing mode                              : Header stripping
Codec ID                                 : V_MPEG4/ISO/AVC
Duration                                 : 1h 50mn
Bit rate                                 : 9 705 Kbps
Width                                    : 1 920 pixels
Height                                   : 1 080 pixels
Display aspect ratio                     : 16:9
Frame rate                               : 23.976 fps
Color space                              : YUV
Chroma subsampling                       : 4:2:0
Bit depth                                : 8 bits
Scan type                                : Progressive
Bits/(Pixel*Frame)                       : 0.195
Stream size                              : 7.49 GiB (83%)
Title                                    : Los Tres Mosqueteros BDRip 1080p chamako
Writing library                          : x264 core
Language                                 : Spanish
Default                                  : No
Forced                                   : No
Color primaries                          : BT.709-5, BT.1361, IEC 61966-2-4, SMPTE RP177
Transfer characteristics                 : BT.709-5, BT.1361
Matrix coefficients                      : BT.709-5, BT.1361, IEC 61966-2-4 709, SMPTE RP177


Audio #1
ID                                       : 2
Format                                   : AC-3
Format/Info                              : Audio Coding 3
Mode extension                           : CM (complete main)
Muxing mode                              : Header stripping
Codec ID                                 : A_AC3
Duration                                 : 1h 50mn
Bit rate mode                            : Constant
Bit rate                                 : 256 Kbps
Channel(s)                               : 2 channels
Channel positions                        : Front: L R
Sampling rate                            : 48.0 KHz
Bit depth                                : 16 bits
Compression mode                         : Lossy
Delay relative to video                  : 1s 0ms
Stream size                              : 202 MiB (2%)
Title                                    : Latino 5.1
Language                                 : Spanish
Default                                  : No
Forced                                   : Yes


Audio #2
ID                                       : 3
Format                                   : DTS
Format/Info                              : Digital Theater Systems
Muxing mode                              : Header stripping
Codec ID                                 : A_DTS
Duration                                 : 1h 50mn
Bit rate mode                            : Constant
Bit rate                                 : 1 510 Kbps
Channel(s)                               : 6 channels
Channel positions                        : Front: L C R, Side: L R, LFE
Sampling rate                            : 48.0 KHz
Bit depth                                : 24 bits
Compression mode                         : Lossy
Delay relative to video                  : 22ms
Stream size                              : 1.17 GiB (13%)
Title                                    : Ingles DTS
Language                                 : English
Default                                  : No
Forced                                   : Yes


Text #1
ID                                       : 4
Format                                   : VobSub
Muxing mode                              : zlib
Codec ID                                 : S_VOBSUB
Codec ID/Info                            : The same subtitle format used on DVDs
Title                                    : Spanish
Language                                 : Spanish
Default                                  : Yes
Forced                                   : Yes


Text #2
ID                                       : 5
Format                                   : VobSub
Muxing mode                              : zlib
Codec ID                                 : S_VOBSUB
Codec ID/Info                            : The same subtitle format used on DVDs
Title                                    : Spanish
Language                                 : Spanish
Default                                  : No
Forced                                   : No


Text #3
ID                                       : 6
Format                                   : UTF-8
Codec ID                                 : S_TEXT/UTF8
Codec ID/Info                            : UTF-8 Plain Text
Title                                    : Forzados
Language                                 : Spanish
Default                                  : No
Forced                                   : No


Text #4
ID                                       : 7
Format                                   : UTF-8
Codec ID                                 : S_TEXT/UTF8
Codec ID/Info                            : UTF-8 Plain Text
Title                                    : Sub Español
Language                                 : Spanish
Default                                  : No
Forced                                   : No


Menu
00:00:00.000                             : en:(01)00:00:00:000
00:06:09.786                             : en:(02)00:06:09:786
00:12:20.406                             : en:(03)00:12:20:406
00:17:31.592                             : en:(04)00:17:31:592
00:23:52.180                             : en:(05)00:23:52:180
00:31:28.678                             : en:(06)00:31:28:678
00:35:56.487                             : en:(07)00:35:56:487
00:42:31.549                             : en:(08)00:42:31:549
00:47:04.613                             : en:(09)00:47:04:613
00:53:17.319                             : en:(10)00:53:17:319
00:59:14.634                             : en:(11)00:59:14:634
01:04:40.042                             : en:(12)01:04:40:042
01:08:33.109                             : en:(13)01:08:33:109
01:14:24.418                             : en:(14)01:14:24:418
01:21:04.609                             : en:(15)01:21:04:609
01:27:36.918                             : en:(16)01:27:36:918
01:36:09.680                             : en:(17)01:36:09:680
01:42:27.432                             : en:(18)01:42:27:432
01:50:31.458                             : en:(19)01:50:31:458












Instrucciones de Descarga


Añadir el link al Jdownloader, y empieza a descargar del host que mas te agrade


NETLOAD/FREAKSHARE/SHARE-ONLINE/UPLOADED




Descarga en MEGA 1 Link:



CONTRASEÑA: chamako (todo minusculas)


Si Algun link cae solo enviame un MP con el link del post y lo resubiré