Información del archivo en el servidor
Partes: 2
Servidor: Rg
Tamaño: 687 mb


Sinopsis
Seis personas aparecen encerradas en un complejo laberinto de habitaciones cúbicas que esconde trampas mortales. No saben cómo llegaron allí, pero pronto descubren que deberán resolver ciertos enigmas y sortear con habilidad todas las trampas si quieren sobrevivir.


Caps









Ficha Tenica


TÍTULO ORIGINAL Cube
AÑO 1997
DURACIÓN 92 min.
PAÍS Canada
DIRECTOR Vincenzo Natali
GUIÓN Vincenzo Natali, Andre Bijelic, Graeme Manson
MÚSICA Mark Korren
FOTOGRAFÍA Derek Rogers
REPARTO Maurice Dean Wint, Nicole deBoer, Nicky Guadagni, David Hewlett, Andrew Miller, Wayne Robson, Julian Richings
PRODUCTORA Cube Libre / The Feature Film Project / The Harold Greenberg Fund / Odeon Films / Ontario Film Development Corporation / Téléfilm Canada / Viacom Canada
GÉNERO Fantástico. Terror. Thriller | Película de culto. Thriller psicológico


Datos de ripeo


Cub.DvDRip_Cast_1997.avi
Format : AVI
Format/Info : Audio Video Interleave
File size : 687 MiB
Duration : 1h 26mn
Overall bit rate mode : Variable
Overall bit rate : 1 108 Kbps
Writing application : Nandub v1.0rc2
Writing library : Nandub build 1852/release


Video
ID : 0
Format : MPEG-4 Visual
Format settings, BVOP : 1
Format settings, QPel : No
Format settings, GMC : 2 warppoints
Format settings, Matrix : Default (H.263)
Muxing mode : Packed bitstream
Codec ID : DX50
Codec ID/Hint : DivX 5
Duration : 1h 26mn
Bit rate : 945 Kbps
Width : 640 pixels
Height : 336 pixels
Display aspect ratio : 1.905
Frame rate : 25.000 fps
Color space : YUV
Chroma subsampling : 4:2:0
Bit depth : 8 bits
Scan type : Progressive
Compression mode : Lossy
Bits/(Pixel*Frame) : 0.176
Stream size : 587 MiB (85%)
Writing library : DivX 5.0.2 (UTC 2002-05-16)

Descarga en MEGA 1 Link:



Audio
ID : 1
Format : MPEG Audio
Format version : Version 1
Format profile : Layer 3
Mode : Joint stereo
Mode extension : MS Stereo
Codec ID : 55
Codec ID/Hint : MP3
Duration : 1h 26mn
Bit rate mode : Variable
Bit rate : 150 Kbps
Nominal bit rate : 160 Kbps
Channel(s) : 2 channels
Sampling rate : 48.0 KHz
Compression mode : Lossy
Stream size : 92.8 MiB (14%)
Alignment : Aligned on interleaves
Interleave, duration : 24 ms (0.60 video frame)
Interleave, preload duration : 467 ms
Writing library : LAME3.92
Encoding settings : -m j -V 4 -q 2 -lowpass 18.5 --abr 160


Descarga



Nota: Si encuentras un link caído avísame para volverlo a subir