Información del archivo en el servidor
Partes: 1
Servidor: Lb
Tamaño: 240 mb


Sinopsis
Madame Olga, una atractiva mujer que vive en una lujosa y sofisticada casa en Londres, es profesora de piano y cuenta con un buen nombre de alumnas. Bajo esta fachada se oculta en realidad una casa de citas. Madame Olga se ha especializado en proporcionar chicas a importantes hombres de negocios y personalidades de la política.


Caps






Descarga en MEGA 1 Link:





Ficha Tenica


Dirección: José Ramón Larraz
Guión: José Ramón Larraz
Fotografía: Hans Burman
Música: Ramón Balcázar
Actores: Helga Liné, Maria Harper, Jorge Gonce, Lynn Endersson, Eva Lyberten, Antonio Serra, Jazmine Venturini, Laly Espinet
País: España
Idioma: Español de España
Año: 1981
Duración: 1h 15 min.
Género: Drama Erótico


Datos de ripeo


Código:

LasalumnasdemadameOlga.1981_Skay73.avi
Format                                   : AVI
Format/Info                              : Audio Video Interleave
File size                                : 240 MiB
Duration                                 : 1h 14mn
Overall bit rate                         : 449 Kbps
Writing library                          : VirtualDub build 29963/release


Video
ID                                       : 0
Format                                   : MPEG-4 Visual
Format profile                           : Advanced Simple@L5
Format settings, BVOP                    : 2
Format settings, QPel                    : No
Format settings, GMC                     : No warppoints
Format settings, Matrix                  : Default (H.263)
Muxing mode                              : Packed bitstream
Codec ID                                 : XVID
Codec ID/Hint                            : XviD
Duration                                 : 1h 14mn
Bit rate                                 : 312 Kbps
Width                                    : 352 pixels
Height                                   : 288 pixels
Display aspect ratio                     : 1.222
Frame rate                               : 25.000 fps
Standard                                 : PAL
Color space                              : YUV
Chroma subsampling                       : 4:2:0
Bit depth                                : 8 bits
Scan type                                : Progressive
Compression mode                         : Lossy
Bits/(Pixel*Frame)                       : 0.123
Stream size                              : 166 MiB (69%)
Writing library                          : XviD 1.0.1 (UTC 2004-06-05)


Audio
ID                                       : 1
Format                                   : MPEG Audio
Format version                           : Version 1
Format profile                           : Layer 3
Mode                                     : Joint stereo
Mode extension                           : MS Stereo
Codec ID                                 : 55
Codec ID/Hint                            : MP3
Duration                                 : 1h 14mn
Bit rate mode                            : Constant
Bit rate                                 : 128 Kbps
Channel(s)                               : 2 channels
Sampling rate                            : 44.1 KHz
Compression mode                         : Lossy
Stream size                              : 68.3 MiB (28%)
Alignment                                : Split accross interleaves
Interleave, duration                     : 40 ms (1.00 video frame)
Interleave, preload duration             : 500 ms

Descarga
Lb


Parte 1



Nota: Si encuentras un link caído avísame para volverlo a subir