TÍTULO ORIGINAL: The Dark Knight rises.
AÑO: 2012
GENERO: Acción, thriller.
REPARTO: Christian Bale (Bruce Wayne/Batman), Tom Hardy (Bane), Gary Oldman (James Gordon), Anne Hathaway (Selina Kyle/Catwoman), Morgan Freeman (Lucius Fox), Michael Caine (Alfred), Marion Cotillard (Miranda Tate), Joseph Gordon-Levitt (John Blake), Daniel Sunjata (agente de operaciones especiales), Josh Pence (joven Ra?s Al Ghul), Diego Klattenhoff (policía novato), Nestor Carbonell (alcalde de Gotham City), Juno Temple (Holly Robinson), Matthew Modine (Foley), Christopher Judge.


En ?El Caballero Oscuro: La leyenda renace?, la conclusión de la trilogía de El Caballero Oscuro del director Christopher Nolan, han pasado ocho años desde que Batman desapareciera en la oscuridad, convirtiéndose, en ese instante, de héroe en fugitivo. Al asumir la culpa por la muerte de D.A. Harvey Dent, el Caballero Oscuro lo sacrificó todo por lo que considera, al igual que el Comisario Gordon, un bien mayor. La mentira funciona durante un tiempo, ya que la actividad criminal de la ciudad de Gotham se ve aplacada gracias a la dura Ley Dent. Pero todo cambia con la llegada de una astuta gata ladrona, que lleva a cabo un misterioso plan. Sin embargo, es mucho más peligrosa la aparición en escena de Bane, un terrorista enmascarado cuyos despiadados planes para la ciudad hacen que Bruce regrese de su autoimpuesto exilio. Pero a pesar de volver a ponerse el traje, es posible que Batman no sea suficiente para combatir a Bane.






Descarga en MEGA 1 Link:


Código:
General

Format                                   : AVI
Format/Info                              : Audio Video Interleave
File size                                : 1.75 GiB
Duration                                 : 2h 35mn
Overall bit rate                         : 1 610 Kbps
Writing application                      : MEncoder SVN-r22963
Writing library                          : MPlayer

Video
ID                                       : 0
Format                                   : MPEG-4 Visual
Format profile                           : Simple@L1
Format settings, BVOP                    : No
Format settings, QPel                    : No
Format settings, GMC                     : No warppoints
Format settings, Matrix                  : Default (H.263)
Codec ID                                 : XVID
Codec ID/Hint                            : XviD
Duration                                 : 2h 35mn
Bit rate                                 : 1 470 Kbps
Width                                    : 720 pixels
Height                                   : 400 pixels
Display aspect ratio                     : 16:9
Frame rate                               : 25.000 fps
Color space                              : YUV
Chroma subsampling                       : 4:2:0
Bit depth                                : 8 bits
Scan type                                : Progressive
Compression mode                         : Lossy
Bits/(Pixel*Frame)                       : 0.204
Stream size                              : 1.60 GiB (91%)
Writing library                          : Lavc51.40.2

Audio
ID                                       : 1
Format                                   : MPEG Audio
Format version                           : Version 1
Format profile                           : Layer 3
Codec ID                                 : 55
Codec ID/Hint                            : MP3
Duration                                 : 2h 35mn
Bit rate mode                            : Constant
Bit rate                                 : 128 Kbps
Channel(s)                               : 2 channels
Sampling rate                            : 44.1 KHz
Compression mode                         : Lossy
Stream size                              : 143 MiB (8%)
Alignment                                : Aligned on interleaves
Interleave, duration                     : 26 ms (0.65 video frame)
Interleave, preload duration             : 522 ms



*DESCARGA AL MAXIMO, EL MEJOR*



Descomprimir con Winrar