The Amazing Spider-Man (2012) | BDrip 1080p x264.mkv | Castellano | Fantástico |




TÍTULO ORIGINAL: The Amazing Spider-Man (The Amazing Spiderman)
OTROS TÍTULOS: El Sorprendente Hombre Araña
AÑO: 2012
DURACIÓN: 136 min.
PAÍS: USA
DIRECTOR: Marc Webb
GUIÓN: Steve Kloves, James Vanderbilt, Alvin Sargent (Personajes: Stan Lee, Steve Ditko)
MÚSICA: James Horner
FOTOGRAFÍA: John Schwartzman
REPARTO: Andrew Garfield, Emma Stone, Rhys Ifans, Sally Field, Martin Sheen, Denis Leary, Campbell Scott, Embeth Davidtz, Irrfan Khan, C. Thomas Howell, Stan Lee
PRODUCTORA: Sony Pictures / Columbia Pictures / Marvel Studios
GÉNERO: Fantástico. Acción. Romance | Adolescencia. Superhéroes. Cómic. Marvel Comics. 3-D
FECHA DE ESTRENO JAPÑON: 13 Junio 2012
FECHA DE ESTRENO USA: 3 Julio 2012
FECHA DE ESTRENO ARGENTINA: 4 Julio 2012
FECHA DE ESTRENO ESPAÑA: 6 Julio 2012



Peter Parker, un marginado estudiante cuyos padres lo abandonaron cuando era niño, fue criado por sus tíos Ben y May. Mientras trata de descifrar quién es, se topa con Gwen Stacy y descubre el amor. Cuando Peter descubre un misterioso portafolio que perteneció a su padre, comienza su misión para entender por qué desapareció, lo cual lo lleva directamente a OsCorp y al laboratorio del Dr. Curt Connors, antiguo socio de su padre. Conforme el Hombre Araña se enfrenta al alter ego de Connors, Lagarto, Peter tomará decisiones sobre sus poderes que cambiarán su destino.


Formato:mkv
Calidad:BDrip 1080p
Video Codec:x264
Resolucion:1920 x 800 pixels
Tamaño:12.2 GB
Audio 1:Castellano AC3
Audio 2:Inglés
Subtítulos:Español, Inglés
Servidor: letitbit
Código:
General
Complete name : The.Amazing.Spider.Man.2012.1080p.Dual.ABM.mkv
Format : Matroska
Format version : Version 2
File size : 12.2 GiB
Duration : 2h 16mn
Overall bit rate mode : Variable
Overall bit rate : 12.8 Mbps
Movie name : -Montaje Por -ABM-
Encoded date : UTC 2012-10-29 23:34:11
Writing application : mkvmerge v5.8.0 ('No Sleep / Pillow') built on Sep 2 2012 15:37:04
Writing library : libebml v1.2.3 + libmatroska v1.3.0

Video
ID : 1
Format : AVC
Format/Info : Advanced Video Codec
Format profile : High@L4.1
Format settings, CABAC : Yes
Format settings, ReFrames : 5 frames
Muxing mode : Header stripping
Codec ID : V_MPEG4/ISO/AVC
Duration : 2h 16mn
Bit rate : 9 922 Kbps
Width : 1 920 pixels
Height : 800 pixels
Display aspect ratio : 2.40:1
Frame rate : 23.976 fps
Color space : YUV
Chroma subsampling : 4:2:0
Bit depth : 8 bits
Scan type : Progressive
Bits/(Pixel*Frame) : 0.269
Stream size : 9.44 GiB (77%)
Title : -Montaje Por -ABM-
Writing library : x264 c
Language : Spanish
Default : Yes
Forced : Yes

Audio #1
ID : 2
Format : AC-3
Format/Info : Audio Coding 3
Mode extension : CM (complete main)
Muxing mode : Header stripping
Codec ID : A_AC3
Duration : 2h 16mn
Bit rate mode : Constant
Bit rate : 384 Kbps
Channel(s) : 6 channels
Channel positions : Front: L C R, Side: L R, LFE
Sampling rate : 48.0 KHz
Bit depth : 16 bits
Compression mode : Lossy
Stream size : 374 MiB (3%)
Title : Audio Castellano AC3
Language : Spanish
Default : Yes
Forced : Yes

Audio #2
ID : 3
Format : DTS
Format/Info : Digital Theater Systems
Format profile : MA / Core
Muxing mode : Header stripping
Codec ID : A_DTS
Duration : 2h 16mn
Bit rate mode : Variable
Bit rate : 2 074 Kbps / 1 510 Kbps
Channel(s) : 6 channels
Channel positions : Front: L C R, Side: L R, LFE
Sampling rate : 48.0 KHz
Bit depth : 16 bits
Compression mode : Lossless / Lossy
Title : Audio DTS-HD Ingles
Language : English
Default : No
Forced : No

Audio #3
ID : 4
Format : AC-3
Format/Info : Audio Coding 3
Format profile : Dolby Digital
Mode extension : CM (complete main)
Muxing mode : Header stripping
Codec ID : A_AC3
Duration : 2h 16mn
Bit rate mode : Constant
Bit rate : 192 Kbps
Channel(s) : 2 channels
Channel positions : Front: L R
Sampling rate : 48.0 KHz
Bit depth : 16 bits
Compression mode : Lossy
Stream size : 187 MiB (1%)
Title : Audio AC3 Comentarios del Director
Language : English
Default : No
Forced : No

Text #1
ID : 5
Format : UTF-8
Codec ID : S_TEXT/UTF8
Codec ID/Info : UTF-8 Plain Text
Title : Subtitulos Castellano Completos
Language : Spanish
Default : No
Forced : No

Text #2
ID : 6
Format : UTF-8
Codec ID : S_TEXT/UTF8
Codec ID/Info : UTF-8 Plain Text
Title : Subtitulos Ingles Completos
Language : English
Default : No
Forced : No






Descarga en MEGA 1 Link:











Links protegidos


Link


1 Link de 12.2 GB
Contraseña:camix

!!!ATENCION!!!

PARA DESCARGAR MAS RAPIDO SUS ARCHIVOS LES RECOMIENDO COMPRAR UNA CUENTA PREMIUM,

ASI PODRAN DESCARGAR MUCHO MAS RAPIDO Y ADEMAS PODRAN PAUSAR SUS DESCARGAS Y REANUDARLAS CUANDO GUSTEN.

PUEDEN OBTENER SUS CUENTAS PREMIUM DE VARIAS FORMA HASTA POR SMS DESDE SU CELULAR A MUY BAJO PRECIO DEPENDIENDO POR CUANTO TIEMPO LA QUIERAS,
LES DEJO AQUI LAS TABLAS DE COMO HACERLO