Iron Man 3 (2013) [BR-R6] [Castellano LiNE DuBBeD] [Fantástica, Acción]



FICHA TÉCNICA

Título: Iron Man 3
Título original: Iron Man 3
País: USA
Estreno en USA: 03/05/2013
Estreno en España: 26/04/2013
Productora: Paramount Pictures
Director: Shane Black
Guión: Drew Pearce, Shane Black
Reparto: Robert Downey Jr., Don Cheadle, Gwyneth Paltrow, Guy Pearce, Cobie Smulders, Ben Kingsley, Paul Bettany, Rebecca Hall, Jon Favreau, Stan Lee, William Sadler, Justin Wheelon, James Badge Dale, Stephanie Szostak, Yvonne Zima
Calificación: No recomendada para menores de 12 años

SINOPSIS

En "Iron Man 3" de Marvel, el descarado pero brillante empresario Tony Stark/Iron Man se enfrentará a un enemigo cuyo poder no conoce límites. Cuando Stark comprende que su enemigo ha destruido su universo personal, se embarca en una angustiosa búsqueda para encontrar a los responsables. Este viaje pondrá a prueba su entereza una y otra vez. Acorralado, Stark tendrá que sobrevivir por sus propios medios, confiando en su ingenio y su instinto para proteger a las personas que quiere. Durante su lucha, Stark conocerá la respuesta a la pregunta que le atormenta en secreto: ¿El hábito hace al monje o es al contrario?

CAPTURAS








DATOS TÉCNICOS

Calidad de Video: BR-R6
Calidad de audio: Castellano MIC Line Dubbed
Tamaño: 1.6GB

Media Info.


Código:
General
Complete name                  : D:\Documents and Settings\I.M.III.R6.Hell69\Iron Man 3 BR R6 LiNE SPANiSH.XviD.avi
Format                         : AVI
Format/Info                    : Audio Video Interleave
File size                      : 1.61 GiB
Duration                       : 2h 9mn
Overall bit rate               : 1 775 Kbps


Video
ID                             : 0
Format                         : MPEG-4 Visual
Format profile                 : Simple@L3
Format settings, BVOP          : No
Format settings, QPel          : No
Format settings, GMC           : No warppoints
Format settings, Matrix        : Default (H.263)
Codec ID                       : XVID
Codec ID/Hint                  : XviD
Duration                       : 2h 9mn
Bit rate                       : 1 506 Kbps
Width                          : 720 pixels
Height                         : 400 pixels
Display aspect ratio           : 16:9
Frame rate                     : 30.000 fps
Color space                    : YUV
Chroma subsampling             : 4:2:0
Bit depth                      : 8 bits
Scan type                      : Progressive
Compression mode               : Lossy
Bits/(Pixel*Frame)             : 0.174
Stream size                    : 1.36 GiB (85%)
Writing library                : XviD 1.2.1 (UTC 2008-12-04)


Audio
ID                             : 1
Format                         : MPEG Audio
Format version                 : Version 1
Format profile                 : Layer 3
Mode                           : Joint stereo
Mode extension                 : MS Stereo
Codec ID                       : 55
Codec ID/Hint                  : MP3
Duration                       : 2h 9mn
Bit rate mode                  : Constant
Bit rate                       : 256 Kbps
Channel(s)                     : 2 channels
Sampling rate                  : 44.1 KHz
Compression mode               : Lossy
Stream size                    : 237 MiB (14%)
Alignment                      : Aligned on interleaves
Interleave, duration           : 26 ms (0.78 video frame)
Writing library                : LAME3.98.2




Descarga en MEGA 1 Link:





DESCARGAR

En 3 LINKS INTERCAMBIABLES

Copiar enlace y aparecerán en el capturador de enlaces de JDownloader o en MiPony

PUTLOCKER

BILLIONUPLOADS

SOCKSHARE

180UPLOAD

4UPFILES

ZIPPYSHARE