Descarga en MEGA 1 Link:


Información del archivo en el servidor
Partes: 2
Servidor: US
Tamaño: 700 Mb

Sinopsis
La historia transcurre en un pequeño pueblo de Tennessee, donde el viejo bluesman Lazarus (Samuel L. Jackson) rescata
a la joven Rae (Christina Ricci) que yace medio muerta al borde de la carretera. Rae es víctima de su insaciable apetito
sexual, lo que la ha generado una muy mala reputación por todo el pueblo; así que Lazarus decide secuestrarla para
"curar" sus ansias. Así empezarán una aventura en común donde se enfrentarán a sus demonios, propios
y ajenos, y que se complicará cuando un ex-novio de Rae, Ronnie
(Justin Timberlake), haga su aparición.

Caps





Ficha Tenica

TÍTULO ORIGINAL Black Snake Moan
AÑO
2006
DURACIÓN
115 min.
PAÍS
Estados Unidos
DIRECTOR Craig Brewer
GUIÓN Craig Brewer
MÚSICA Scott Bomar
FOTOGRAFÍA Amy Vincent
REPARTO Samuel L. Jackson, Christina Ricci, Justin Timberlake, S. Epatha Merkerson, John Cothran Jr., David Banner, Michael Raymond-James
PRODUCTORA Paramount Vantage
GÉNERO Drama. Romance

Datos de ripeo

General
Complete name : files/DjR--Black.Snake.Moan_CAS.avi
Format : AVI
Format/Info : Audio Video Interleave
File size : 701 MiB
Duration : 1h 50mn
Overall bit rate : 884 Kbps
Writing application : VirtualDubMod 1.5.10.1 (build 2439/release)
Writing library : VirtualDubMod build 2439/release

Video
ID : 0
Format : MPEG-4 Visual
Format profile : Advanced Simple@L5
Format settings, BVOP : Yes
Format settings, QPel : No
Format settings, GMC : No warppoints
Format settings, Matrix : Default (H.263)
Codec ID : XVID
Codec ID/Hint : XviD
Duration : 1h 50mn
Bit rate : 746 Kbps
Width : 544 pixels
Height : 224 pixels
Display aspect ratio : 2.40:1
Frame rate : 25.000 fps
Color space : YUV
Chroma subsampling : 4:2:0
Bit depth : 8 bits
Scan type : Progressive
Compression mode : Lossy
Bits/(Pixel*Frame) : 0.245
Stream size : 591 MiB (84%)
Writing library : XviD 1.1.2 (UTC 2006-11-01)

Audio
ID : 1
Format : MPEG Audio
Format version : Version 1
Format profile : Layer 3
Mode : Joint stereo
Mode extension : MS Stereo
Codec ID : 55
Codec ID/Hint : MP3
Duration : 1h 50mn
Bit rate mode : Constant
Bit rate : 128 Kbps
Channel(s) : 2 channels
Sampling rate : 48.0 KHz
Compression mode : Lossy
Stream size : 101 MiB (14%)
Alignment : Aligned on interleaves
Interleave, duration : 40 ms (1.00 video frame)
Interleave, preload duration : 504 ms

Descarga

Nota: Si encuentras un link caído avísame para volverlo a subir