Información del archivo en el servidor
Partes: 2
Servidor: Fj
Tamaño: 0.95 gb


Sinopsis
Franco es un muchacho adinerado que cursa con muy poco provecho el último año del bachillerato. Los profesores amenazan con reprobarlo, sin embargo el director de la escuela le aconseja prepararse con una profesora particular. Y no es cualquier profesora: Giovana enamorará a Franco y también a su padre Fefe.




Caps









Ficha Tenica


TITULO: Pecado venial (La profesora particular)
TÍTULO ORIGINAL: L'insegnante
AÑO: 1975
DURACIÓN: 90 min.
DIRECTOR: Nando Cicero
GÉNERO: Comedia, Erotica
PAÍS: Italia
REPARTO: Edwige Fenech, Vittorio Caprioli, Alfredo Pea, Mario Carotenuto, Carlo Delle Piane, Stefano Amato, Alvaro Vitali, Enzo Cannavale, Francesca Romana Coluzzi, Patrizia Laricchio


Datos de ripeo


General


Complete name : files/018.PV_Sky73.avi
Format : AVI
Format/Info : Audio Video Interleave
File size : 948 MiB
Duration : 1h 28mn
Overall bit rate : 1 491 Kbps
Writing application : VirtualDubMod 1.5.10.1 (build 2366/release)
Writing library : VirtualDubMod build 2366/release


Video


ID : 0
Format : MPEG-4 Visual
Format profile : Advanced Simple@L5
Format settings, BVOP : Yes
Format settings, QPel : No
Format settings, GMC : No warppoints
Format settings, Matrix : Default (H.263)
Muxing mode : Packed bitstream
Codec ID : XVID
Codec ID/Hint : XviD
Duration : 1h 28mn
Bit rate : 964 Kbps
Width : 720 pixels
Height : 328 pixels
Display aspect ratio : 2.2:1
Frame rate : 25.000 fps
Color space : YUV
Chroma subsampling : 4:2:0
Bit depth : 8 bits
Scan type : Progressive
Bits/(Pixel*Frame) : 0.163
Stream size : 613 MiB (65%)
Writing library : XviD 1.0.3 (UTC 2004-12-20)


Audio #1


ID : 1
Format : MPEG Audio
Format version : Version 1
Format profile : Layer 3
Codec ID : 55
Codec ID/Hint : MP3
Duration : 1h 28mn
Bit rate mode : Constant
Bit rate : 256 Kbps
Channel(s) : 2 channels
Sampling rate : 44.1 KHz
Stream size : 163 MiB (17%)
Alignment : Split accross interleaves
Interleave, duration : 40 ms (1.00 video frame)
Interleave, preload duration : 500 ms


Audio #2


ID : 2
Format : MPEG Audio
Format version : Version 1
Format profile : Layer 3
Codec ID : 55
Codec ID/Hint : MP3
Duration : 1h 28mn
Bit rate mode : Constant
Bit rate : 256 Kbps
Channel(s) : 2 channels
Sampling rate : 44.1 KHz
Stream size : 163 MiB (17%)
Alignment : Split accross interleaves
Interleave, duration : 40 ms (1.00 video frame)
Interleave, preload duration : 500 ms

Descarga en MEGA 1 Link:



Descarga



Nota: Si encuentras un link caído avísame para volverlo a subir